<?xml version="1.0" standalone="no"?>
<!DOCTYPE svg PUBLIC "-//W3C//DTD SVG 1.1//EN" "http://www.w3.org/Graphics/SVG/1.1/DTD/svg11.dtd" >
<svg xmlns="http://www.w3.org/2000/svg">
<metadata>Generated by IcoMoon</metadata>
<defs>
<font id="icomoon" horiz-adv-x="512">
<font-face units-per-em="512" ascent="480" descent="-32" />
<missing-glyph horiz-adv-x="512" />
<glyph unicode="&#x20;" horiz-adv-x="256" d="" />
<glyph unicode="&#xe600;" glyph-name="new-topic" d="M170.667 320v-42.666h128v42.666h-128zM170.667 234.667h192v21.333h-192v-21.334zM362.666 213.334h-170.667v-21.334h170.667v21.334zM362.666 149.334v21.334h-149.333v-21.334h149.333zM170.667 170.667h-64v-64h-64v-64h64v-64h64v64h64v64h-64v64zM85.334 426.667v-213.334h42.666v170.666h277.334v-362.666h-141.718l-21.334-42.666h205.718v448h-362.666z" />
<glyph unicode="&#xe601;" glyph-name="mail" d="M21.334 341.333v-277.333h448v277.333h-448zM64 106.667v167.808l331.606-167.808h-331.606zM426.666 129.088l-136.064 72.683 136.064 72.704v-145.387zM257.877 225.963l-143.061 72.704h281.493l-138.432-72.704z" />
<glyph unicode="&#xe602;" glyph-name="arrow-top" d="M396.365 193.613c-10.419 10.701-120.192 115.251-120.192 115.251-5.581 5.709-12.877 8.576-20.173 8.576-7.322 0-14.618-2.867-20.173-8.576 0 0-109.773-104.551-120.218-115.251-10.419-10.701-11.136-29.952 0-41.37 11.162-11.392 26.701-12.313 40.345 0l100.045 95.923 100.019-95.923c13.671-12.313 29.235-11.392 40.346 0 11.161 11.443 10.471 30.695 0 41.37z" />
<glyph unicode="&#xe603;" glyph-name="quote" horiz-adv-x="320" d="M0 224v-128h128v128h-64c0 0 0 64 64 64v64c0 0-128 0-128-128zM320 288v64c0 0-128 0-128-128v-128h128v128h-64c0 0 0 64 64 64z" />
<glyph unicode="&#xe604;" glyph-name="eye" d="M256 384c-111.659 0-208.441-65.021-256-160 47.559-94.979 144.341-160 256-160 111.657 0 208.439 65.021 256 160-47.558 94.979-144.343 160-256 160zM382.225 299.148c30.081-19.187 55.571-44.887 74.717-75.148-19.146-30.261-44.637-55.961-74.718-75.149-37.797-24.108-81.445-36.851-126.224-36.851-44.78 0-88.428 12.743-126.225 36.852-30.080 19.186-55.57 44.886-74.717 75.148 19.146 30.262 44.637 55.962 74.717 75.148 1.959 1.25 3.938 2.461 5.929 3.65-4.979-13.664-7.704-28.411-7.704-43.798 0-70.692 57.308-128 128-128s128 57.308 128 128c0 15.387-2.725 30.134-7.704 43.799 1.99-1.189 3.969-2.401 5.929-3.651zM256 275c0-26.51-21.49-48-48-48s-48 21.49-48 48 21.49 48 48 48 48-21.49 48-48z" />
<glyph unicode="&#xe605;" glyph-name="eye-blocked" d="M419.661 331.792c38.822-27.515 70.685-64.546 92.339-107.792-47.561-94.979-144.343-160-256-160-31.283 0-61.396 5.106-89.589 14.542l38.978 38.978c16.529-3.65 33.486-5.52 50.611-5.52 44.779 0 88.427 12.743 126.223 36.852 30.081 19.188 55.572 44.888 74.718 75.149-18.526 29.283-43.007 54.275-71.825 73.247l34.545 34.544zM256 131c-11.362 0-22.376 1.488-32.864 4.267l156.593 156.592c2.781-10.486 4.271-21.497 4.271-32.859 0-70.692-57.308-128-128-128zM480 480h-26.869l-109.806-109.806c-27.538 8.962-56.877 13.806-87.325 13.806-111.659 0-208.441-65.021-256-160 21.329-42.596 52.564-79.154 90.597-106.534l-90.597-90.597v-26.869h26.869l453.131 453.131v26.869zM208 323c24.022 0 43.923-17.647 47.446-40.685l-54.762-54.762c-23.037 3.524-40.684 23.425-40.684 47.447 0 26.51 21.49 48 48 48zM55.058 224c19.146 30.262 44.637 55.962 74.717 75.148 1.959 1.25 3.938 2.461 5.929 3.65-4.979-13.664-7.704-28.411-7.704-43.798 0-29.262 9.825-56.224 26.349-77.781l-29.275-29.275c-28.036 18.821-51.877 43.386-70.016 72.056z" />
<glyph unicode="&#xe606;" glyph-name="trash" d="M96-32h320l32 352h-384zM320 416v64h-128v-64h-160v-96l32 32h384l32-32v96h-160zM288 416h-64v32h64v-32z" />
<glyph unicode="&#xe607;" glyph-name="tags" horiz-adv-x="544" d="M496 448h-112c-26.4 0-63.273-15.273-81.941-33.941l-188.118-188.118c-18.667-18.667-18.667-49.214 0-67.882l140.118-140.117c18.667-18.668 49.214-18.668 67.882 0l188.117 188.117c18.669 18.668 33.942 55.541 33.942 81.941v112c0 26.4-21.6 48-48 48zM432 288c-26.51 0-48 21.49-48 48s21.49 48 48 48 48-21.49 48-48-21.49-48-48-48zM43.313 180.687l171.189-171.189c-18.132-9.58-41.231-6.769-56.443 8.444l-140.118 140.117c-18.667 18.668-18.667 49.215 0 67.882l188.118 188.118c18.668 18.668 55.541 33.941 81.941 33.941l-244.687-244.686c-6.222-6.223-6.222-16.404 0-22.627z" />
<glyph unicode="&#xe608;" glyph-name="play" d="M490.594 399.946c-71.816 10.325-151.166 16.054-234.593 16.054-83.43 0-162.778-5.729-234.597-16.054-13.765-53.863-21.404-113.375-21.404-175.946 0-62.57 7.639-122.083 21.404-175.945 71.819-10.326 151.168-16.055 234.597-16.055 83.427 0 162.776 5.729 234.593 16.055 13.766 53.862 21.406 113.375 21.406 175.945 0 62.571-7.64 122.083-21.406 175.946zM192.001 128v192l160-96-160-96z" />
<glyph unicode="&#xe609;" glyph-name="arrow-down" d="M396.365 267.187c-10.419-10.701-120.192-115.277-120.192-115.277-5.581-5.709-12.877-8.55-20.173-8.55-7.322 0-14.618 2.841-20.173 8.55 0 0-109.773 104.576-120.218 115.277-10.419 10.701-11.136 29.926 0 41.37 11.162 11.417 26.701 12.313 40.345 0l100.045-95.949 100.019 95.923c13.671 12.314 29.235 11.418 40.346 0 11.161-11.417 10.471-30.669 0-41.344z" />
<glyph unicode="&#xe60a;" glyph-name="arrow-up" d="M396.365 193.613c-10.419 10.701-120.192 115.251-120.192 115.251-5.581 5.709-12.877 8.576-20.173 8.576-7.322 0-14.618-2.867-20.173-8.576 0 0-109.773-104.551-120.218-115.251-10.419-10.701-11.136-29.952 0-41.37 11.162-11.392 26.701-12.313 40.345 0l100.045 95.923 100.019-95.923c13.671-12.313 29.235-11.392 40.346 0 11.161 11.443 10.471 30.695 0 41.37z" />
<glyph unicode="&#xe60b;" glyph-name="menu" d="M32 384h448v-96h-448zM32 256h448v-96h-448zM32 128h448v-96h-448z" />
<glyph unicode="&#xe60c;" glyph-name="more-vert" d="M256 298.667c23.574 0 42.666 19.094 42.666 42.667s-19.094 42.666-42.666 42.666-42.666-19.093-42.666-42.666 19.094-42.667 42.666-42.667zM256 256c-23.573 0-42.666-19.094-42.666-42.667s19.094-42.666 42.666-42.666 42.666 19.094 42.666 42.666-19.094 42.667-42.666 42.667zM256 128c-23.573 0-42.666-19.094-42.666-42.666s19.094-42.666 42.666-42.666 42.666 19.094 42.666 42.666-19.094 42.666-42.666 42.666z" />
<glyph unicode="&#xe60d;" glyph-name="edit" d="M447.674 390.144l-34.584 34.584 40.728 40.727c0 0 34.909 0.721 34.909-34.188l-41.053-41.123zM69.818 372.364v-325.818h325.818v221.091l46.546 46.546v-267.637c0-25.693-20.853-46.546-46.546-46.546h-325.818c-25.693 0-46.545 20.853-46.545 46.546v325.818c0 25.693 20.852 46.546 46.545 46.546h267.637l-46.546-46.546h-221.091zM186.182 162.909v34.909l17.454 17.454 34.886-34.886-17.431-17.478h-34.909zM424.448 366.825l-174.313-174.778-34.863 34.862 174.546 174.545 34.63-34.63z" />
<glyph unicode="&#xe60e;" glyph-name="more-horiz" d="M128 256c-23.573 0-42.666-19.094-42.666-42.667s19.093-42.666 42.666-42.666 42.666 19.094 42.666 42.666-19.094 42.667-42.666 42.667zM384 256c-23.574 0-42.666-19.094-42.666-42.667s19.094-42.666 42.666-42.666 42.666 19.094 42.666 42.666-19.094 42.667-42.666 42.667zM256 256c-23.573 0-42.666-19.094-42.666-42.667s19.094-42.666 42.666-42.666 42.666 19.094 42.666 42.666-19.094 42.667-42.666 42.667z" />
<glyph unicode="&#xe900;" glyph-name="eye2" d="M256 373.76c-167.962 0-256-123.699-256-143.36 0-19.61 88.038-143.36 256-143.36 167.936 0 256 123.75 256 143.36 0 19.661-88.064 143.36-256 143.36zM256 120.141c-62.848 0-113.792 49.357-113.792 110.259s50.944 110.311 113.792 110.311c62.848 0 113.767-49.408 113.767-110.311s-50.918-110.259-113.767-110.259zM256 230.4c-10.419 11.443 16.973 55.143 0 55.143-31.437 0-56.909-24.704-56.909-55.143s25.472-55.143 56.909-55.143c31.411 0 56.909 24.704 56.909 55.143 0 14.003-48.051-9.703-56.909 0z" />
<glyph unicode="&#xe901;" glyph-name="message" d="M460.8 332.8v-179.2c0-28.16-23.040-51.2-51.2-51.2h-102.4v-76.8l-102.4 76.8h-102.4c-28.186 0-51.2 23.040-51.2 51.2v179.2c0 28.16 23.014 51.2 51.2 51.2h307.2c28.16 0 51.2-23.040 51.2-51.2z" />
<glyph unicode="&#xe902;" glyph-name="arrow-right" d="M442.534 199.067c0 0 0 0 0 0 0.134 0.134 0.134 0.134 0.134 0.134s0 0 0 0 0.134 0.134 0.134 0.134c0 0 0.134 0.134 0.134 0.134s0 0 0 0 0.134 0.134 0.134 0.134c0 0 0 0 0 0 1.334 1.6 2.4 3.334 3.2 5.2 0 0 0 0 0 0.134 0 0 0 0.134 0 0.134s0 0.134 0 0.134c0 0 0 0 0 0 0.8 2 1.334 4.134 1.466 6.4 0 0 0 0 0 0s0 0.134 0 0.134c0 0 0 0.134 0 0.134s0 0.134 0 0.134c0 0 0 0.134 0 0.134s0 0 0 0.134c0 0.534 0 1.067 0 1.6 0 0 0 0 0 0.133 0 0 0 0.134 0 0.134s0 0.133 0 0.133c0 0 0 0.134 0 0.134s0 0.133 0 0.133c0 0 0 0 0 0-0.134 2.267-0.666 4.4-1.466 6.4 0 0 0 0 0 0.133 0 0 0 0 0 0.134 0 0 0 0.133-0.134 0.133 0 0 0 0 0 0-0.8 2-2 3.734-3.334 5.467 0 0 0 0 0 0s-0.134 0.133-0.134 0.133c0 0 0 0 0 0s-0.134 0.133-0.134 0.133-0.134 0.133-0.134 0.133 0 0 0 0.133c-0.267 0.267-0.534 0.534-0.8 0.8l-128 128c-8.267 8.267-21.866 8.267-30.134 0s-8.267-21.866 0-30.133l91.6-91.6h-289.733c-11.733 0-21.334-9.6-21.334-21.334s9.6-21.334 21.334-21.334h289.866l-91.6-91.6c-8.267-8.267-8.267-21.866 0-30.134 4.134-4.134 9.6-6.267 15.067-6.267s10.933 2.134 15.067 6.267l127.866 127.866c0.4 0.534 0.666 0.933 0.933 1.2z" />
<glyph unicode="&#xe903;" glyph-name="arrow-left" d="M426.666 234.667h-289.866l91.6 91.6c8.267 8.266 8.267 21.866 0 30.133s-21.867 8.267-30.133 0l-128-128c-0.266-0.267-0.4-0.4-0.666-0.667 0 0 0 0 0 0s-0.133-0.133-0.133-0.133c0 0-0.133-0.133-0.133-0.133s0 0 0-0.133c0 0-0.133-0.133-0.133-0.133v0c-1.466-1.6-2.534-3.467-3.466-5.333 0 0 0 0 0 0s0-0.134 0-0.134c0 0 0-0.133 0-0.133s0 0 0 0c-1.067-2.534-1.6-5.334-1.6-8.267s0.534-5.733 1.6-8.267c0 0 0 0 0 0s0-0.134 0.133-0.134c0 0 0 0 0-0.134 0 0 0 0 0-0.134 0.8-1.866 1.867-3.6 3.2-5.2 0 0 0 0 0 0s0.133-0.134 0.133-0.134c0 0 0 0 0.133-0.134 0 0 0 0 0.133-0.134 0 0 0.133-0.134 0.133-0.134s0 0 0 0c0.266-0.267 0.534-0.534 0.8-0.8l128-128c4.133-4.134 9.6-6.267 15.066-6.267s10.934 2.134 15.066 6.267c8.267 8.267 8.267 21.866 0 30.134l-91.733 91.733h289.866c11.733 0 21.334 9.6 21.334 21.334s-9.6 21.334-21.334 21.334z" />
<glyph unicode="&#xf00c;" glyph-name="check" d="M34.572 210.286q0 11.428 8 19.428l38.857 38.857q8 8 19.428 8t19.428-8l84-84.285 187.429 187.714q8 8 19.428 8t19.428-8l38.857-38.857q8-8 8-19.428t-8-19.428l-245.714-245.714q-8-8-19.428-8t-19.428 8l-142.286 142.286q-8 8-8 19.428z" />
<glyph unicode="&#xf00d;" glyph-name="times" horiz-adv-x="403" d="M31.428 97.714q0 11.428 8 19.428l84 84-84 84q-8 8-8 19.428t8 19.428l38.857 38.857q8 8 19.428 8t19.428-8l84-84 84 84q8 8 19.428 8t19.428-8l38.857-38.857q8-8 8-19.428t-8-19.428l-84-84 84-84q8-8 8-19.428t-8-19.428l-38.857-38.857q-8-8-19.428-8t-19.428 8l-84 84-84-84q-8-8-19.428-8t-19.428 8l-38.857 38.857q-8 8-8 19.428z" />
<glyph unicode="&#xf051;" glyph-name="first" d="M466.248 365.679h-420.572q-7.428 0-9.143-3.715t3.715-9.143l202.857-202.857q2.286-2.286 5.428-3.714h-193.714q-7.428 0-12.857-5.429t-5.428-12.857v-36.571q0-7.428 5.428-12.857t12.857-5.428h402.286q7.428 0 12.857 5.428t5.428 12.857v36.571q0 7.428-5.428 12.857t-12.857 5.429h-193.714q2.857 1.428 5.429 3.714l202.857 202.857q5.428 5.429 3.714 9.143t-9.143 3.714z" />
<glyph unicode="&#xf052;" glyph-name="last" d="M466.248 73.179h-420.572q-7.428 0-9.143 3.714t3.715 9.143l202.857 202.857q2.286 2.286 5.428 3.714h-193.714q-7.428 0-12.857 5.429t-5.428 12.857v36.571q0 7.428 5.428 12.857t12.857 5.428h402.286q7.428 0 12.857-5.428t5.428-12.857v-36.571q0-7.428-5.428-12.857t-12.857-5.429h-193.714q2.857-1.428 5.429-3.714l202.857-202.857q5.428-5.429 3.714-9.143t-9.143-3.714z" />
<glyph unicode="&#xf0f3;" glyph-name="bell" horiz-adv-x="476" d="M0 73.143q54.285 46 82 113.572t27.715 142.428q0 47.143 27.428 74.857t75.429 33.428q-2.286 5.143-2.286 10.572 0 11.428 8 19.428t19.428 8 19.428-8 8-19.428q0-5.428-2.286-10.572 48-5.714 75.428-33.428t27.428-74.857q0-74.857 27.714-142.428t82-113.572q0-14.857-10.857-25.714t-25.714-10.857h-128q0-30.286-21.428-51.714t-51.714-21.429-51.714 21.429-21.428 51.714h-128q-14.857 0-25.715 10.857t-10.857 25.714zM187.429 36.572q0-20.857 14.714-35.572t35.571-14.714q4.572 0 4.572 4.572t-4.572 4.572q-16.857 0-29 12.143t-12.143 29q0 4.572-4.571 4.572t-4.572-4.572z" />
<glyph unicode="&#xf12a;" glyph-name="exclamation" horiz-adv-x="183" d="M146.286 118.857v-64q0-7.428-5.428-12.857t-12.857-5.428h-73.143q-7.428 0-12.857 5.428t-5.428 12.857v64q0 7.428 5.428 12.857t12.857 5.428h73.143q7.429 0 12.857-5.428t5.428-12.857zM154.857 420.572l-8-219.428q-0.286-7.428-5.857-12.857t-13-5.428h-73.143q-7.428 0-13 5.428t-5.857 12.857l-8 219.428q-0.285 7.428 5 12.857t12.715 5.428h91.428q7.429 0 12.714-5.428t5-12.857z" />
<glyph unicode="&#xf164;" glyph-name="thumbs-up" horiz-adv-x="457" d="M73.143 91.429q0 7.428-5.428 12.857t-12.857 5.428q-7.715 0-13-5.428t-5.285-12.857q0-7.714 5.285-13t13-5.286q7.428 0 12.857 5.286t5.428 13zM118.857 237.714v-182.857q0-7.428-5.428-12.857t-12.857-5.428h-82.285q-7.428 0-12.857 5.428t-5.428 12.857v182.857q0 7.429 5.428 12.857t12.857 5.428h82.285q7.428 0 12.857-5.428t5.428-12.857zM457.143 237.714q0-24.572-15.714-42.572 4.286-12.572 4.286-21.714 0.857-21.714-12.286-39.143 4.857-16 0-33.428-4.286-16.286-15.428-26.857 2.572-32-14-51.714-18.286-21.714-56.286-22.286h-36.857q-18.857 0-41.143 4.428t-34.714 8.286-34.428 11.286q-35.143 12.286-45.143 12.572-7.429 0.286-12.857 5.572t-5.428 12.714v183.143q0 7.143 5.143 12.429t12.286 5.857q6.857 0.572 21.715 16.857t28.857 34.572q19.429 24.857 28.857 34.286 5.143 5.143 8.857 13.714t5 13.857 3.857 17.286q2 11.143 3.571 17.429t5.571 14.857 9.714 14.286q5.428 5.428 12.857 5.428 13.143 0 23.572-3t17.143-7.428 11.428-11.572 6.857-12.857 3.428-14.285 1.428-12.857 0.143-11.143q0-10.857-2.714-21.714t-5.428-17.143-7.857-16q-0.857-1.714-2.857-5.143t-3.143-6.286-2.286-6.857h79.143q22.286 0 38.572-16.285t16.286-38.572z" />
<glyph unicode="&#xf165;" glyph-name="thumbs-down" horiz-adv-x="457" d="M73.143 310.857q0-7.428-5.428-12.857t-12.857-5.428q-7.715 0-13 5.428t-5.285 12.857q0 7.714 5.285 13t13 5.286q7.428 0 12.857-5.286t5.428-13zM118.857 164.572v182.857q0 7.429-5.428 12.857t-12.857 5.428h-82.285q-7.428 0-12.857-5.428t-5.428-12.857v-182.857q0-7.428 5.428-12.857t12.857-5.428h82.285q7.428 0 12.857 5.428t5.428 12.857zM441.428 207.143q15.714-17.428 15.714-42.572-0.286-22.286-16.428-38.572t-38.428-16.286h-79.143q1.143-4 2.286-6.857t3.143-6.286 2.857-5.143q5.143-10.572 7.714-16.286t5.428-16.714 2.857-21.857q0-6.857-0.143-11.143t-1.428-12.857-3.428-14.286-6.857-12.857-11.428-11.572-17.143-7.428-23.572-3q-7.428 0-12.857 5.428-5.714 5.714-9.714 14.286t-5.572 14.857-3.571 17.428q-2.571 12-3.857 17.286t-5 13.857-8.857 13.714q-9.429 9.428-28.857 34.286-14 18.286-28.857 34.572t-21.715 16.857q-7.143 0.572-12.286 5.857t-5.143 12.428v183.143q0 7.428 5.429 12.715t12.857 5.571q10 0.286 45.143 12.572 22 7.428 34.428 11.286t34.714 8.285 41.143 4.429h36.857q38-0.572 56.286-22.286 16.572-19.714 14-51.714 11.143-10.572 15.428-26.857 4.857-17.428 0-33.428 13.143-17.428 12.286-39.143 0-9.143-4.286-21.714z" />
</font>
</defs>
</svg>
